osu file format v14

[General]
AudioFilename: this is a mp3.mp3
AudioLeadIn: 1500
PreviewTime: 86339
Countdown: 0
SampleSet: Soft
StackLeniency: 0.7
Mode: 0
LetterboxInBreaks: 0
WidescreenStoryboard: 0

[Editor]
Bookmarks: 38058
DistanceSpacing: 0.8
BeatDivisor: 4
GridSize: 4
TimelineZoom: 2.799999

[Metadata]
Title:Blue on Blue
TitleUnicode:Blue on Blue
Artist:Rita
ArtistUnicode:Rita
Creator:Kin
Version:Hard
Source:サツコイ~悠久なる恋の歌~
Tags:理多 Satsukoi ~Yuukyuu Naru Koi no Uta~ KIZAWA studio ALcot honey comb
BeatmapID:594609
BeatmapSetID:202925

[Difficulty]
HPDrainRate:5
CircleSize:4
OverallDifficulty:6
ApproachRate:7
SliderMultiplier:1.6
SliderTickRate:1

[Events]
//Background and Video events
Video,0,"Hey I'm a video.avi",0,0
0,0,"Satsukoi182.jpg",0,0
//Break Periods
//Storyboard Layer 0 (Background)
//Storyboard Layer 1 (Fail)
//Storyboard Layer 2 (Pass)
//Storyboard Layer 3 (Foreground)
//Storyboard Sound Samples

[TimingPoints]
562,705.882352941176,4,2,2,20,1,0
2264,681.044267877412,4,2,2,20,1,0
20993,750,4,2,2,20,1,0
21368,774.193548387097,4,2,2,20,1,0
24464,468.75,4,2,1,40,1,0
24933,468.75,4,2,3,80,1,1
25050,-100,4,2,1,80,0,0
27042,-100,4,2,1,60,0,0
27511,-100,4,2,1,80,0,0
31026,-100,4,2,1,60,0,0
31143,-100,4,2,1,80,0,0
34542,-100,4,2,1,60,0,0
34893,-100,4,2,1,80,0,0
39933,-133.333333333333,4,2,1,30,0,0
46026,-133.333333333333,4,2,1,40,0,0
46143,-133.333333333333,4,2,1,30,0,0
53526,-133.333333333333,4,2,1,40,0,0
53643,-133.333333333333,4,2,1,20,0,0
61026,-133.333333333333,4,2,1,40,0,0
61143,-133.333333333333,4,2,1,30,0,0
68058,-100,4,2,1,50,0,0
69933,-100,4,3,1,50,0,0
83058,-100,4,3,1,30,0,0
83175,-100,4,3,1,60,0,0
83761,-100,4,2,1,30,0,0
84112,-100,4,3,1,60,0,0
84933,-100,4,2,1,80,0,0
86808,-100,4,1,0,80,0,1
86925,-100,4,2,1,100,0,1
88917,-100,4,2,1,60,0,1
89268,-100,4,2,1,100,0,1
92901,-100,4,2,1,60,0,1
93018,-100,4,2,1,100,0,1
96417,-100,4,2,1,60,0,1
96768,-100,4,2,1,100,0,1
101808,-100,4,2,1,100,0,0
103917,-100,4,2,1,60,0,0
104268,-100,4,2,1,100,0,0
109308,-100,4,1,0,100,0,1
109425,-100,4,2,1,100,0,1
111417,-100,4,2,1,60,0,1
111768,-100,4,2,1,100,0,1
118917,-100,4,2,1,60,0,1
119268,-100,4,2,1,100,0,1
120558,-100,4,2,1,100,0,0
122433,-100,4,2,1,80,0,0
124776,-100,4,2,1,60,0,0
126183,-100,4,2,1,40,0,0
128058,-100,4,2,1,20,0,0
129815,-100,4,2,0,5,0,0

[Colours]
Combo1 : 198,99,0
Combo2 : 0,106,213
Combo3 : 126,0,253
Combo4 : 190,125,255

[HitObjects]
56,96,562,6,0,B|50:65|58:35|76:12,2,80,2|0|2,0:0|0:0|0:0,0:0:0:0:
124,368,2264,5,2,0:0:0:0:
184,296,2604,1,0,0:0:0:0:
256,360,2945,1,0,0:0:0:0:
328,296,3285,1,2,0:0:0:0:
388,368,3626,1,0,0:0:0:0:
388,368,3966,2,0,B|424:336|433:285|414:241|381:217,1,160,2|0,0:0|0:0,0:0:0:0:
312,172,4988,5,0,0:0:0:0:
256,252,5328,1,2,0:0:0:0:
200,172,5669,1,0,0:0:0:0:
121,225,6009,2,0,B|101:196|99:161|112:132,1,80,2|0,0:0|0:0,0:0:0:0:
144,60,6690,2,0,B|220:28|228:80|308:52,1,160,2|0,0:0|0:0,0:0:0:0:
388,16,7712,5,2,0:0:0:0:
432,100,8052,1,0,0:0:0:0:
432,100,8393,2,0,B|445:130|442:162|428:188,1,80,0|2,0:0|0:0,0:0:0:0:
308,212,9074,2,0,B|297:185|298:157|308:133,1,80,0|2,0:0|0:0,0:0:0:0:
352,48,9755,1,0,0:0:0:0:
432,100,10096,1,2,0:0:0:0:
308,212,10436,1,0,0:0:0:0:
228,160,10777,2,0,B|176:132|116:134|68:160,1,160,2|2,0:0|0:0,0:0:0:0:
8,228,11798,5,0,0:0:0:0:
72,300,12139,2,0,B|123:325|180:321|226:297,1,160,2|0,0:0|0:0,0:0:0:0:
292,228,13160,1,2,0:0:0:0:
340,312,13501,1,0,0:0:0:0:
420,212,13841,2,0,B|431:181|430:148|420:119,1,80,2|0,0:0|0:0,0:0:0:0:
364,60,14522,1,0,0:0:0:0:
364,60,14863,2,0,B|318:102|254:110|201:88,1,160,2|0,0:0|0:0,0:0:0:0:
124,68,15884,5,2,0:0:0:0:
32,44,16225,1,0,0:0:0:0:
56,136,16565,2,0,B|65:169|59:201|44:228,1,80,2|0,0:0|0:0,0:0:0:0:
8,300,17246,1,0,0:0:0:0:
148,260,17587,2,0,B|202:236|260:240|308:264,1,160,2|2,0:0|0:0,0:0:0:0:
372,328,18609,1,0,0:0:0:0:
440,200,18949,2,0,B|467:148|455:87|417:49,1,160,2|0,0:0|0:0,0:0:0:0:
328,24,19971,5,0,0:0:0:0:
256,88,20311,1,2,0:0:0:0:
184,24,20652,2,0,B|159:51|155:89|168:119,1,80,2|2,0:0|0:0,0:0:0:0:
350,98,21368,2,0,B|354:70|345:43|328:24,1,80,2|2,0:0|0:0,0:0:0:0:
256,192,21948,12,2,24464,0:0:0:0:
396,212,24932,6,0,B|407:184|406:154|396:128,1,80,4|0,1:0|0:0,0:0:0:0:
332,64,25401,1,8,0:0:0:0:
256,124,25636,1,2,0:0:0:0:
180,64,25870,1,2,0:0:0:0:
113,133,26104,2,0,B|105:160|107:188|116:213,1,80,0|8,0:0|0:0,0:0:0:0:
180,284,26573,1,0,0:0:0:0:
256,228,26808,6,0,L|340:232,1,80,2|8,0:0|0:1,0:0:0:0:
180,284,27276,2,0,L|96:288,1,80,8|2,0:1|0:0,0:0:0:0:
24,228,27745,1,2,0:0:0:0:
24,228,27979,2,0,B|10:200|8:171|16:144,1,80,0|10,0:0|0:0,0:0:0:0:
96,48,28448,1,2,0:0:0:0:
192,132,28683,6,0,L|280:136,1,80,0|0,0:0|0:0,0:0:0:0:
348,192,29151,1,8,0:0:0:0:
236,256,29386,1,2,0:0:0:0:
348,316,29620,2,0,B|388:324|427:316,1,80,2|0,0:0|0:0,0:0:0:0:
488,240,30089,1,10,0:0:0:0:
428,164,30323,1,0,0:0:0:0:
488,88,30558,6,0,B|462:67|429:62|400:72,1,80,2|0,0:0|0:0,0:0:0:0:
336,128,31026,1,2,0:3:0:0:
256,76,31261,1,0,0:0:0:0:
176,128,31495,2,0,L|80:120,1,80,2|0,0:0|0:0,0:0:0:0:
64,116,31847,1,0,0:0:0:0:
64,116,31964,1,10,0:0:0:0:
4,192,32198,1,2,0:0:0:0:
64,268,32433,6,0,L|143:261,1,80,6|0,0:0|0:0,0:0:0:0:
196,180,32901,1,8,0:0:0:0:
256,256,33136,1,2,0:0:0:0:
348,144,33370,1,2,0:0:0:0:
372,236,33604,2,0,B|405:249|439:246|468:232,1,80,0|8,0:0|0:0,0:0:0:0:
426,145,34073,1,2,0:0:0:0:
426,145,34308,6,0,B|400:134|372:135|348:143,1,80,0|8,0:0|0:1,0:0:0:0:
252,252,34776,2,0,B|278:263|306:262|330:254,1,80,8|2,0:1|0:0,0:0:0:0:
420,220,35245,1,2,0:0:0:0:
418,122,35479,1,0,0:0:0:0:
324,96,35714,1,10,0:0:0:0:
256,164,35948,1,0,0:0:0:0:
188,96,36183,6,0,B|160:85|130:86|104:96,1,80,2|0,0:0|0:0,0:0:0:0:
64,180,36651,1,8,0:0:0:0:
108,268,36886,2,0,L|100:312,2,40,0|0|0,0:0|1:0|0:0,0:0:0:0:
188,216,37354,1,0,1:0:0:0:
188,216,37589,2,0,B|228:224|268:216,1,80,8|0,0:0|0:0,0:0:0:0:
352,172,38058,5,0,1:0:0:0:
352,172,38292,2,0,B|344:140|351:109|368:84,1,80,4|0,1:2|0:0,0:0:0:0:
380,68,38643,2,0,B|420:72|420:72|460:64,1,80,4|0,1:2|1:0,0:0:0:0:
488,56,38995,1,4,1:2:0:0:
488,56,39933,5,2,0:0:0:0:
508,148,40167,1,0,0:0:0:0:
460,232,40401,1,0,0:0:0:0:
368,252,40635,1,0,0:0:0:0:
280,212,40870,2,0,B|217:204|156:212,1,120.000004577637,,,0:0:0:0:
68,308,41573,2,0,B|131:316|192:308,1,120.000004577637,,,0:0:0:0:
280,212,42276,1,0,0:0:0:0:
280,212,43683,6,0,B|271:176|280:140,1,60.0000022888184,2|0,0:0|0:0,0:0:0:0:
368,116,44151,2,0,B|377:152|368:188,1,60.0000022888184,0|0,0:0|0:0,0:0:0:0:
340,268,44620,2,0,B|314:298|273:307|237:292|216:265,1,120.000004577637,,,0:0:0:0:
144,180,45323,2,0,B|132:128|160:124|144:60,1,120.000004577637,,,0:0:0:0:
236,156,46026,1,2,0:3:0:0:
236,156,46729,5,0,0:0:0:0:
236,156,46964,2,0,B|259:166|283:167|304:160,1,60.0000022888184,,,0:0:0:0:
388,140,47433,2,0,B|432:134|473:160|488:199,1,120.000004577637,2|0,0:0|0:0,0:0:0:0:
400,236,48136,1,0,0:0:0:0:
400,236,50479,5,0,0:0:0:0:
400,236,50714,2,0,B|397:259|387:278|372:292,1,60.0000022888184,,,0:0:0:0:
288,336,51183,2,0,B|249:319|207:321|172:336,1,120.000004577637,2|0,0:0|0:0,0:0:0:0:
72,248,51886,2,0,B|111:265|153:263|188:248,1,120.000004577637,,,0:0:0:0:
256,180,52589,2,0,B|260:152|252:152|256:120,1,60.0000022888184,,,0:0:0:0:
312,44,53058,1,2,0:0:0:0:
464,160,53526,2,0,B|468:192|460:192|464:220,1,60.0000022888184,2|0,0:3|0:0,0:0:0:0:
312,336,54229,6,0,B|279:309|232:310|201:335,1,120.000004577637,0|0,1:0|0:0,0:0:0:0:
112,296,54933,5,2,1:2:0:0:
112,296,55167,2,0,B|97:276|92:251|96:228,1,60.0000022888184,,,0:0:0:0:
124,148,55636,1,0,0:0:0:0:
196,88,55870,2,0,B|238:99|280:98|318:88,1,120.000004577637,,,0:0:0:0:
416,172,56573,2,0,B|374:161|332:162|294:172,1,120.000004577637,,,0:0:0:0:
256,260,57276,5,0,0:0:0:0:
172,308,57511,2,0,B|153:272|157:231|180:201,1,90.0000034332277,2|0,0:0|0:0,0:0:0:0:
188,192,57979,2,0,B|199:165|199:137|192:111,1,60.0000022888184,2|0,0:0|0:0,0:0:0:0:
184,36,58448,1,0,1:0:0:0:
328,36,58683,5,2,1:2:0:0:
328,36,58917,2,0,B|368:28|408:36,1,60.0000022888184,,,0:0:0:0:
472,80,59386,1,0,0:0:0:0:
380,176,59620,2,0,B|340:193|297:192|260:176,1,120.000004577637,,,0:0:0:0:
172,80,60323,2,0,L|156:200,1,120.000004577637,,,0:0:0:0:
236,304,61026,5,2,0:3:0:0:
320,256,61261,2,0,B|353:245|387:246|417:256,1,90.0000034332277,2|0,0:0|0:0,0:0:0:0:
444,264,61729,2,0,B|465:256|482:242|492:224,1,60.0000022888184,2|0,0:0|1:0,0:0:0:0:
412,172,62198,1,0,0:0:0:0:
488,112,62433,6,0,B|457:74|405:66|365:87,1,120.000004577637,2|0,1:2|0:0,0:0:0:0:
312,148,63136,2,0,L|184:156,1,120.000004577637,2|0,0:0|0:0,0:0:0:0:
108,108,63839,1,2,0:0:0:0:
56,228,64073,2,0,B|43:274|46:320|60:361,1,120.000004577637,2|0,0:0|0:0,0:0:0:0:
144,304,64776,5,2,0:0:0:0:
264,360,65011,2,0,L|392:352,1,120.000004577637,2|0,0:0|0:0,0:0:0:0:
464,296,65714,1,0,0:0:0:0:
364,192,65948,1,0,1:0:0:0:
364,192,66183,2,0,B|340:153|344:107|368:73,1,120.000004577637,0|0,1:0|0:0,0:0:0:0:
108,128,67589,6,0,L|60:136,1,30.0000011444092,0|0,1:0|0:0,0:0:0:0:
220,100,68058,2,0,B|269:110|316:96,1,80,0|8,1:0|3:2,0:0:0:0:
392,76,68526,2,0,L|396:128,1,40,0|8,1:0|3:2,0:0:0:0:
344,248,68995,1,0,1:0:0:0:
332,276,69112,1,8,3:2:0:0:
320,304,69229,2,8,L|328:360,2,40,8|8|8,3:2|3:2|3:2,0:0:0:0:
182,345,69698,1,8,3:2:0:0:
150,339,69815,1,8,3:2:0:0:
125,320,69933,6,0,B|107:296|106:265|120:240,1,80,0|0,1:0|0:0,0:0:0:0:
156,156,70401,1,0,0:0:0:0:
256,260,70636,1,0,1:0:0:0:
256,260,70870,2,0,L|340:264,1,80,0|0,1:0|0:0,0:0:0:0:
368,264,71222,1,0,0:0:0:0:
400,264,71339,2,0,B|436:266|468:244|480:213,1,80,8|0,0:2|0:0,0:0:0:0:
416,96,71808,6,0,B|380:94|348:116|336:147,1,80,0|0,1:0|0:0,0:0:0:0:
304,216,72276,1,0,0:0:0:0:
248,136,72511,1,0,1:0:0:0:
196,216,72745,2,0,L|192:264,2,40,0|8|0,1:0|0:2|1:0,0:0:0:0:
144,136,73214,1,8,0:2:0:0:
112,276,73448,1,0,1:0:0:0:
112,276,73683,6,0,B|117:312|149:338|183:336,1,80,0|0,1:0|0:0,0:0:0:0:
256,316,74151,1,0,0:0:0:0:
332,192,74386,1,0,1:0:0:0:
332,192,74620,2,0,L|324:104,1,80,0|0,1:0|0:0,0:0:0:0:
320,80,74972,1,0,0:0:0:0:
316,48,75089,2,0,B|286:37|255:38|228:48,1,80,8|0,0:2|0:0,0:0:0:0:
144,156,75558,6,0,B|174:167|205:166|232:156,1,80,0|0,1:0|0:0,0:0:0:0:
316,132,76026,1,0,0:0:0:0:
356,272,76261,1,0,1:0:0:0:
356,272,76495,2,0,L|360:328,2,40,0|8|0,1:0|0:2|1:0,0:0:0:0:
416,196,76964,2,0,B|433:166|432:132|416:104,1,80,8|0,0:2|0:0,0:0:0:0:
360,48,77433,6,0,B|320:56|320:56|276:52,1,80,0|0,1:0|0:0,0:0:0:0:
188,36,77901,1,0,0:0:0:0:
148,176,78136,1,0,1:0:0:0:
148,176,78370,2,0,B|136:209|137:243|148:273,1,80,0|0,1:0|0:0,0:0:0:0:
152,288,78722,1,0,0:0:0:0:
164,316,78839,2,0,L|256:324,1,80,8|0,0:2|1:0,0:0:0:0:
320,200,79308,6,0,L|240:193,1,80,0|0,1:0|0:0,0:0:0:0:
148,176,79776,1,0,0:0:0:0:
256,80,80011,1,0,1:0:0:0:
256,80,80245,2,0,L|295:83,2,40,0|8|0,1:0|0:2|1:0,0:0:0:0:
180,20,80714,2,0,B|149:13|118:15|91:24,1,80,8|0,0:2|0:0,0:0:0:0:
8,132,81183,6,0,L|16:220,1,80,0|0,1:0|0:0,0:0:0:0:
24,308,81651,1,0,0:0:0:0:
152,240,81886,1,0,1:0:0:0:
152,240,82120,2,0,B|182:233|211:235|237:244,1,80,0|0,1:0|0:0,0:0:0:0:
260,256,82472,1,0,0:0:0:0:
288,268,82589,2,0,B|328:280|328:280|376:276,1,80,8|0,0:2|0:0,0:0:0:0:
408,140,83058,6,0,B|356:124|356:124|299:129|299:129|252:119,1,160,8|0,2:1|0:0,0:0:0:0:
160,92,83761,1,8,0:1:0:0:
120,180,83995,2,0,B|109:202|107:226|112:249,2,40,8|8|0,0:1|0:2|1:0,0:0:0:0:
204,224,84464,2,0,B|240:239|279:233|308:212,1,80,8|0,0:2|0:0,0:0:0:0:
364,176,84933,6,0,B|353:149|354:120|364:96,1,80,4|0,1:2|0:0,0:0:0:0:
376,68,85284,2,0,L|288:64,1,80,4|0,1:2|0:0,0:0:0:0:
264,64,85636,1,4,1:2:0:0:
184,340,86339,5,2,0:0:0:0:
256,276,86573,1,2,0:0:0:0:
328,340,86808,6,0,L|407:342,1,80,4|0,0:0|0:0,0:0:0:0:
484,284,87276,1,8,0:0:0:0:
428,204,87511,1,0,0:0:0:0:
428,204,87628,1,0,1:0:0:0:
428,204,87745,2,0,B|417:176|418:146|428:120,1,80,,,0:0:0:0:
472,40,88214,1,8,0:0:0:0:
384,8,88448,1,0,0:0:0:0:
296,52,88683,6,0,B|256:60|256:60|216:52,1,80,0|8,1:0|0:1,0:0:0:0:
96,132,89151,2,0,B|136:124|136:124|176:132,1,80,8|0,0:1|0:0,0:0:0:0:
268,156,89620,1,0,0:0:0:0:
200,224,89854,1,0,1:0:0:0:
268,292,90089,2,0,B|301:305|335:302|364:288,1,80,8|0,0:0|0:0,0:0:0:0:
436,264,90558,6,0,B|424:184|424:184|432:92,1,160,0|8,1:0|0:0,0:0:0:0:
340,16,91261,2,0,L|333:98,1,80,,,0:0:0:0:
256,156,91729,1,0,0:0:0:0:
172,16,91964,2,0,L|178:95,1,80,8|0,0:0|0:0,0:0:0:0:
168,192,92433,5,0,1:0:0:0:
248,244,92667,1,0,0:0:0:0:
248,244,92784,1,0,0:0:0:0:
248,244,92901,2,0,B|283:259|320:253|348:232,1,80,2|0,0:3|0:0,0:0:0:0:
288,156,93370,1,0,1:0:0:0:
288,156,93604,2,0,B|284:117|284:117|292:76,1,80,,,0:0:0:0:
304,48,93956,2,0,B|341:56|377:52|409:40,1,80,0|0,1:0|0:0,0:0:0:0:
412,36,94308,6,0,B|434:57|441:89|432:116,1,80,0|0,1:0|0:0,0:0:0:0:
412,204,94776,2,0,B|420:244|420:244|420:288,1,80,8|0,0:0|0:0,0:0:0:0:
340,340,95245,1,0,0:0:0:0:
256,292,95479,1,0,1:0:0:0:
172,340,95714,2,0,B|144:351|114:350|88:340,1,80,8|0,0:0|0:0,0:0:0:0:
40,260,96183,6,0,L|28:164,1,80,0|8,1:0|0:1,0:0:0:0:
132,80,96651,2,0,L|120:176,1,80,8|0,0:1|0:0,0:0:0:0:
180,236,97120,1,0,0:0:0:0:
256,180,97354,1,0,1:0:0:0:
332,236,97589,1,8,0:0:0:0:
416,140,97823,1,0,0:0:0:0:
456,260,98058,6,0,B|445:325|387:368|325:364,1,160,0|8,1:0|0:0,0:0:0:0:
332,236,98761,1,0,0:0:0:0:
208,212,98995,2,0,B|219:147|277:104|339:108,1,160,0|8,0:0|0:0,0:0:0:0:
332,236,99698,1,0,0:0:0:0:
412,136,99933,6,0,B|424:101|414:64|388:40,1,80,,,0:0:0:0:
307,31,100401,2,0,B|298:58|303:86|316:108,1,80,2|0,0:3|0:0,0:0:0:0:
412,136,100870,2,0,L|492:140,2,80,0|0|8,0:0|0:0|0:0,0:0:0:0:
340,200,101573,1,8,3:2:0:0:
324,216,101690,1,8,3:2:0:0:
308,232,101808,6,0,L|228:228,1,80,4|0,1:0|0:0,0:0:0:0:
132,220,102276,1,8,0:0:0:0:
188,144,102511,1,0,0:0:0:0:
264,320,102745,2,0,L|423:327,1,160,0|8,0:0|0:0,0:0:0:0:
496,264,103448,1,0,0:0:0:0:
456,176,103683,6,0,L|460:96,1,80,0|8,1:0|0:1,0:0:0:0:
344,12,104151,2,0,L|348:92,1,80,8|0,0:1|0:0,0:0:0:0:
312,180,104620,1,0,0:0:0:0:
228,132,104854,2,0,B|175:124|124:132,1,80,,,0:0:0:0:
116,140,105206,2,0,B|104:180|104:180|108:224,1,80,0|0,1:0|0:0,0:0:0:0:
112,252,105558,6,0,B|125:280|149:298|176:304,1,80,0|0,1:0|0:0,0:0:0:0:
267,309,106026,1,8,0:0:0:0:
356,268,106261,1,0,0:0:0:0:
356,268,106495,2,0,L|360:188,1,80,,,0:0:0:0:
320,100,106964,1,8,0:0:0:0:
256,172,107198,1,0,0:0:0:0:
192,100,107433,5,0,1:0:0:0:
120,224,107667,2,0,B|107:260|110:297|124:328,1,80,0|2,0:0|0:3,0:0:0:0:
184,368,108136,1,0,0:0:0:0:
184,368,108253,1,0,1:0:0:0:
184,368,108370,2,0,B|224:372|224:372|272:368,1,80,8|0,0:0|0:0,0:0:0:0:
360,352,108839,1,2,0:0:0:0:
444,236,109073,1,0,0:0:0:0:
300,220,109308,6,0,B|256:189|243:131|269:82|310:61,1,160,4|0,0:0|0:0,0:0:0:0:
356,144,110011,1,2,0:0:0:0:
376,52,110245,2,0,B|412:57|439:86|444:119,1,80,2|0,0:0|0:0,0:0:0:0:
432,196,110714,1,10,0:0:0:0:
348,240,110948,1,0,0:0:0:0:
428,292,111183,6,0,L|424:372,1,80,2|8,0:0|0:1,0:0:0:0:
348,240,111651,2,0,L|344:160,1,80,8|2,0:1|0:0,0:0:0:0:
256,44,112120,2,0,B|212:52|168:44,1,80,2|0,0:0|0:0,0:0:0:0:
84,16,112589,1,10,0:0:0:0:
104,108,112823,1,0,0:0:0:0:
104,108,113058,6,0,B|116:188|116:188|104:268,1,160,2|8,0:0|0:0,0:0:0:0:
84,360,113761,1,2,0:0:0:0:
224,332,113995,2,0,L|312:336,1,80,2|0,0:0|0:0,0:0:0:0:
384,284,114464,2,0,B|400:256|400:223|388:196,1,80,10|0,0:0|0:0,0:0:0:0:
356,116,114933,5,2,0:0:0:0:
248,212,115167,1,2,0:0:0:0:
272,72,115401,1,2,0:3:0:0:
336,200,115636,1,0,0:0:0:0:
204,136,115870,2,0,L|112:140,1,80,2|0,0:0|0:0,0:0:0:0:
44,192,116339,1,10,0:0:0:0:
68,332,116573,1,10,0:0:0:0:
180,240,116808,6,0,B|227:207|287:209|331:239,1,160,6|8,0:0|0:0,0:0:0:0:
396,312,117511,1,2,0:0:0:0:
448,228,117745,2,0,L|452:144,1,80,2|0,0:0|0:0,0:0:0:0:
404,64,118214,1,10,0:0:0:0:
332,124,118448,1,0,0:0:0:0:
256,64,118683,6,0,L|168:68,1,80,2|8,0:0|0:1,0:0:0:0:
68,164,119151,2,0,L|156:168,1,80,8|2,0:1|0:0,0:0:0:0:
244,176,119620,1,2,0:0:0:0:
308,248,119854,1,0,0:0:0:0:
256,328,120089,1,10,0:0:0:0:
160,312,120323,1,0,0:0:0:0:
156,216,120558,6,0,B|136:171|149:120|185:88|227:80,1,160,2|8,0:0|0:0,0:0:0:0:
244,176,121261,1,0,0:0:0:0:
336,144,121495,2,0,L|424:148,1,80,0|0,0:0|1:0,0:0:0:0:
484,216,121964,1,8,0:0:0:0:
460,308,122198,1,0,0:0:0:0:
364,320,122433,5,0,1:0:0:0:
288,260,122667,2,0,B|240:246|192:256,1,80,4|0,1:2|0:0,0:0:0:0:
180,264,123018,2,0,B|146:272|112:268|83:256,1,80,4|0,1:2|0:0,0:0:0:0:
72,252,123370,1,4,1:2:0:0:
72,252,124776,5,4,1:0:0:0:
256,192,124893,12,0,129815,0:0:0:0:
